osu file format v14

[General]
AudioFilename: PV.mp3
AudioLeadIn: 1500
PreviewTime: 63436
Countdown: 0
SampleSet: Soft
StackLeniency: 0.7
Mode: 0
LetterboxInBreaks: 0
WidescreenStoryboard: 0

[Editor]
Bookmarks: 44519,59603,81519
DistanceSpacing: 1
BeatDivisor: 4
GridSize: 4
TimelineZoom: 2.2

[Metadata]
Title:Ai no Scenario
TitleUnicode:アイのシナリオ
Artist:CHiCO with HoneyWorks
ArtistUnicode:CHiCO with HoneyWorks
Creator:Tenseki
Version:Normal
Source:まじっく快斗1412
Tags:Magic Kaito 1412 tv size opening A-1 Pictures Inc jieusieu Doyak
BeatmapID:624821
BeatmapSetID:275461

[Difficulty]
HPDrainRate:4
CircleSize:3
OverallDifficulty:4
ApproachRate:5
SliderMultiplier:1.14
SliderTickRate:1

[Events]
//Background and Video events
0,0,"BG.png",0,0
//Break Periods
//Storyboard Layer 0 (Background)
//Storyboard Layer 1 (Fail)
//Storyboard Layer 2 (Pass)
//Storyboard Layer 3 (Foreground)
//Storyboard Sound Samples

[TimingPoints]
520,333.333333333333,4,2,1,50,1,0
2186,-100,4,2,2,50,0,0
2269,-100,4,2,1,50,0,0
5353,-100,4,2,1,60,0,0
5603,-100,4,2,2,60,0,0
5853,-100,4,2,1,40,0,0
6519,-100,4,2,1,45,0,0
7186,-100,4,2,1,50,0,0
7853,-100,4,2,1,55,0,0
8519,-100,4,2,1,60,0,0
10686,-100,4,2,2,60,0,0
11186,-100,4,2,1,40,0,0
13186,-100,4,2,1,45,0,0
13853,-100,4,2,1,40,0,0
15853,-100,4,2,1,70,0,0
16519,-100,4,2,1,60,0,0
21353,-100,4,2,1,40,0,0
21853,-100,4,2,1,50,0,0
27853,-100,4,2,2,50,0,0
27936,-100,4,2,1,50,0,0
32186,-100,4,2,3,50,0,0
32269,-100,4,2,1,50,0,0
32519,-100,4,2,1,60,0,0
41686,-100,4,2,1,40,0,0
42186,-100,4,2,1,50,0,0
42519,-100,4,2,1,60,0,0
43186,-100,4,2,1,50,0,0
44853,-100,4,2,2,50,0,0
44936,-100,4,2,1,50,0,0
53519,-100,4,2,3,40,0,0
53603,-100,4,2,1,50,0,0
53853,-100,4,2,1,60,0,0
57853,-100,4,2,1,40,0,0
58186,-100,4,2,1,50,0,0
58519,-100,4,2,1,60,0,0
58853,-100,4,2,1,70,0,0
59186,-100,4,2,1,40,0,0
59853,-100,4,2,1,35,0,0
60519,-100,4,2,1,30,0,0
61186,-100,4,2,1,60,0,0
62853,-100,4,2,3,70,0,0
63019,-100,4,2,1,70,0,0
63519,-100,4,2,1,40,0,0
64519,-100,4,2,1,60,0,1
69686,-100,4,2,1,50,0,1
69853,-100,4,2,1,60,0,1
75186,-100,4,2,1,70,0,1
76519,-100,4,2,1,60,0,1
76853,-100,4,2,3,60,0,1
76936,-100,4,2,1,60,0,1
79519,-100,4,2,3,60,0,1
79603,-100,4,2,1,60,0,1
80353,-100,4,2,1,50,0,1
80519,-100,4,2,1,60,0,1
83519,-100,4,2,3,60,0,1
83603,-100,4,2,1,60,0,1
85853,-100,4,2,1,60,0,0
88686,-100,4,2,1,20,0,0

[Colours]
Combo1 : 153,0,0
Combo2 : 0,99,147
Combo3 : 234,234,0

[HitObjects]
155,257,520,6,0,L|189:375,2,114,6|2|2,0:0|0:0|0:0,0:0:0:0:
81,169,1519,1,2,0:0:0:0:
138,70,1853,2,0,B|214:26|306:41|365:98,1,228,2|2,0:0|0:0,0:0:0:0:
414,182,2853,2,0,L|423:263,1,57,2|0,0:0|0:0,0:0:0:0:
405,293,3186,6,0,B|362:268|310:279|281:314,1,114,2|2,0:0|0:0,0:0:0:0:
190,338,3853,2,0,B|143:351|96:325|80:282,1,114,2|2,0:0|0:0,0:0:0:0:
59,190,4519,2,0,B|79:150|75:106|54:71,2,114,2|2|2,0:0|0:0|0:0,0:0:0:0:
101,229,5353,2,0,B|144:276|218:274|260:227,1,171,8|12,0:0|0:0,0:0:0:0:
366,209,6186,5,2,0:0:0:0:
450,132,6519,2,0,B|472:91|461:43|430:15,1,114,2|2,0:0|0:0,0:0:0:0:
347,90,7186,2,0,L|231:91,1,114,2|2,0:0|0:0,0:0:0:0:
140,24,7853,2,0,B|114:61|113:107|133:143,1,114,2|4,0:0|0:0,0:0:0:0:
217,235,8519,6,0,L|355:233,1,114,8|2,0:0|0:0,0:0:0:0:
368,190,9019,1,8,0:0:0:0:
477,221,9353,2,0,B|478:241|468:258|453:269,1,57,2|8,0:0|0:0,0:0:0:0:
323,46,10686,6,0,L|324:120,1,57,4|8,0:0|0:0,0:0:0:0:
209,102,11186,6,0,L|194:217,1,114,2|0,0:0|0:0,0:0:0:0:
304,183,11853,2,0,L|289:298,1,114,2|0,0:0|0:0,0:0:0:0:
246,333,12353,2,0,B|203:312|155:322|123:351,1,114,2|0,0:0|0:0,0:0:0:0:
88,370,12853,1,2,0:0:0:0:
2,295,13186,6,0,L|5:231,1,57,8|0,0:0|0:0,0:0:0:0:
54,210,13519,2,0,L|54:132,1,57,10|0,0:0|0:0,0:0:0:0:
3,126,13853,6,0,L|6:-1,1,114,2|0,0:0|0:0,0:0:0:0:
116,39,14519,2,0,B|155:68|207:63|241:34,1,114,2|0,0:0|0:0,0:0:0:0:
278,28,15019,2,0,L|399:29,1,114,2|0,0:0|0:0,0:0:0:0:
439,61,15519,1,2,0:0:0:0:
480,167,15853,6,0,L|467:243,1,57,8|0,0:0|0:0,0:0:0:0:
425,258,16186,2,0,L|408:326,1,57,10|0,0:0|0:0,0:0:0:0:
361,340,16519,6,0,B|317:317|267:320|227:343,1,114,6|8,0:0|0:0,0:0:0:0:
140,338,17186,2,0,L|92:368,2,57,2|0|8,0:0|0:0|0:0,0:0:0:0:
207,245,17853,2,0,B|231:203|225:153|197:119,1,114,2|8,0:0|0:0,0:0:0:0:
103,91,18519,2,0,B|121:51|159:27|199:25,1,114,2|8,0:0|0:0,0:0:0:0:
278,98,19186,6,0,B|320:120|369:115|405:90,1,114,6|8,0:0|0:0,0:0:0:0:
488,46,19853,2,0,L|467:-17,2,57,2|0|8,0:0|0:0|0:0,0:0:0:0:
503,158,20519,2,0,B|511:200|497:241|470:270,1,114,2|8,0:0|0:0,0:0:0:0:
396,186,21186,2,0,L|395:56,1,114,2|8,0:0|0:0,0:0:0:0:
282,54,21853,6,0,B|213:64|147:51,1,114,6|2,0:0|0:0,0:0:0:0:
73,117,22519,2,0,B|88:164|84:212|67:253,1,114,2|2,0:0|0:0,0:0:0:0:
119,334,23186,2,0,L|241:326,1,114,2|2,0:0|0:0,0:0:0:0:
245,271,23686,2,0,B|262:234|302:217|339:225,1,114,2|0,0:0|0:0,0:0:0:0:
397,231,24186,1,2,0:0:0:0:
469,318,24519,6,0,B|507:289|519:240|502:199,1,114,2|2,0:0|0:0,0:0:0:0:
446,120,25186,1,2,0:0:0:0:
352,184,25519,1,2,0:0:0:0:
284,92,25853,2,0,B|264:56|227:38|190:40,1,114,2|2,0:0|0:0,0:0:0:0:
80,74,26519,2,0,B|93:115|127:144|165:152,1,114,2|2,0:0|0:0,0:0:0:0:
264,196,27186,5,2,0:0:0:0:
157,237,27519,2,0,B|97:218|33:249|7:308|18:362,1,228,2|2,0:0|0:0,0:0:0:0:
126,344,28519,2,0,L|245:339,1,114,2|2,0:0|0:0,0:0:0:0:
351,365,29186,1,2,0:0:0:0:
425,278,29519,1,2,0:0:0:0:
357,186,29853,6,0,B|334:149|340:102|368:73,1,114,2|2,0:0|0:0,0:0:0:0:
252,50,30519,2,0,L|123:52,1,114,2|2,0:0|0:0,0:0:0:0:
90,83,31019,6,0,B|63:120|67:169|92:202,1,114,12|0,0:0|0:0,0:0:0:0:
118,237,31519,2,0,L|119:305,1,57,2|2,0:0|0:0,0:0:0:0:
157,336,31853,2,0,B|230:295|317:308|374:360,1,228,8|6,0:0|0:0,0:0:0:0:
451,276,32853,5,8,0:0:0:0:
420,167,33186,2,0,L|419:44,1,114,2|8,0:0|0:0,0:0:0:0:
306,34,33853,1,2,0:0:0:0:
335,144,34186,1,8,0:0:0:0:
301,252,34519,2,0,B|279:297|226:315|182:297,1,114,2|8,0:0|0:0,0:0:0:0:
124,225,35186,6,0,B|96:189|94:142|115:105,1,114,2|8,0:0|0:0,0:0:0:0:
213,67,35853,2,0,B|257:60|298:84|315:121,1,114,2|8,0:0|0:0,0:0:0:0:
337,223,36519,1,2,0:0:0:0:
235,275,36853,2,0,L|230:162,1,114,8|2,0:0|0:0,0:0:0:0:
264,52,37519,1,8,0:0:0:0:
151,73,37853,6,0,B|104:83|68:117|54:158,1,114,2|8,0:0|0:0,0:0:0:0:
4,236,38519,2,0,B|3:280|26:317|61:337,1,114,2|8,0:0|0:0,0:0:0:0:
121,237,39186,2,0,B|151:200|203:196|239:223,1,114,2|8,0:0|0:0,0:0:0:0:
335,242,39853,1,2,0:0:0:0:
254,322,40186,1,8,0:0:0:0:
366,339,40519,6,0,B|413:350|413:350|429:341|448:312|444:264,1,114,2|8,0:0|0:0,0:0:0:0:
421,182,41186,2,0,B|432:155|427:125|411:103,2,57,2|2|8,0:0|0:0|0:0,0:0:0:0:
370,219,41686,6,0,B|327:202|282:205|244:224,1,114,6|8,0:0|0:0,0:0:0:0:
204,249,42186,2,0,L|125:250,1,57,6|0,0:0|0:0,0:0:0:0:
98,289,42519,2,0,L|112:363,2,57,8|8|2,0:0|0:0|0:0,0:0:0:0:
53,245,43019,1,0,0:0:0:0:
1,208,43186,6,0,B|-16:165|-9:119|15:83,1,114,6|0,0:0|0:0,0:0:0:0:
87,16,43853,2,0,L|164:17,1,57,8|0,0:0|0:0,0:0:0:0:
241,158,44519,1,2,0:0:0:0:
241,158,44686,2,0,L|367:156,1,114,8|2,0:0|0:0,0:0:0:0:
388,202,45186,2,0,L|446:202,1,57,8|0,0:0|0:0,0:0:0:0:
311,308,45853,6,0,B|267:303|226:311|190:330,1,114,6|0,0:0|0:0,0:0:0:0:
144,340,46353,1,2,0:0:0:0:
144,340,46519,2,0,B|99:322|75:276|82:232,1,114,8|0,0:0|0:0,0:0:0:0:
114,143,47186,2,0,L|78:72,2,57,2|8|8,0:0|0:0|0:0,0:0:0:0:
216,196,47853,2,0,B|256:218|302:216|338:195,1,114,8|8,0:0|0:0,0:0:0:0:
430,245,48519,6,0,B|451:206|441:159|409:133,1,114,6|0,0:0|0:0,0:0:0:0:
390,89,49019,2,0,L|387:17,1,57,2|8,0:0|0:0,0:0:0:0:
273,32,49519,1,0,0:0:0:0:
196,116,49853,1,2,0:0:0:0:
196,116,50019,2,0,B|218:156|207:204|175:232,1,114,8|0,0:0|0:0,0:0:0:0:
128,233,50519,2,0,B|92:208|47:207|12:225,1,114,8|0,0:0|0:0,0:0:0:0:
66,325,51186,6,0,L|203:334,1,114,4|0,0:0|0:0,0:0:0:0:
233,312,51686,2,0,L|309:306,1,57,2|8,0:0|0:0,0:0:0:0:
407,265,52186,2,0,B|404:199|419:136,1,114,0|8,0:0|0:0,0:0:0:0:
438,99,52686,2,0,L|504:82,2,57,0|8|0,0:0|0:0|0:0,0:0:0:0:
386,73,53186,2,0,B|325:47|260:48|203:68,1,171,8|8,0:0|0:0,0:0:0:0:
181,106,53853,6,0,L|48:105,1,114,6|8,0:0|0:0,0:0:0:0:
7,202,54519,2,0,B|17:247|13:292|-1:332,1,114,2|8,0:0|0:0,0:0:0:0:
114,344,55186,2,0,B|162:355|209:351|252:334,1,114,2|8,0:0|0:0,0:0:0:0:
300,254,55853,2,0,B|318:208|312:159|288:120,1,114,2|8,0:0|0:0,0:0:0:0:
190,110,56519,6,0,L|75:136,2,114,2|8|2,0:0|0:0|0:0,0:0:0:0:
222,62,57353,1,2,0:0:0:0:
272,35,57519,2,0,B|313:17|360:32|384:67,1,114,8|12,0:0|0:0,0:0:0:0:
456,139,58186,1,8,0:0:0:0:
369,212,58519,1,10,0:0:0:0:
262,170,58853,1,8,0:0:0:0:
167,234,59186,6,0,B|141:273|142:322|166:358,1,114,6|0,0:0|0:0,0:0:0:0:
262,299,59853,2,0,B|308:289|352:296|391:314,1,114,8|2,0:0|0:0,0:0:0:0:
477,258,60519,2,0,B|495:216|487:170|461:138,1,114,,,0:0:0:0:
372,209,61186,2,0,L|245:215,1,114,10|8,0:0|0:0,0:0:0:0:
145,237,61853,6,0,B|120:205|122:161|146:133,1,114,4|0,0:0|0:0,0:0:0:0:
260,134,62519,2,0,B|264:72|216:21|157:18,1,171,8|8,0:0|0:0,0:0:0:0:
46,147,63519,6,0,L|21:267,2,114,,,0:0:0:0:
110,52,64519,6,0,B|148:78|165:122|158:164,1,114,6|8,0:0|0:0,0:0:0:0:
204,254,65186,1,2,0:0:0:0:
308,299,65519,1,8,0:0:0:0:
422,289,65853,2,0,B|469:266|484:226|484:226|468:190,1,114,2|8,0:0|0:0,0:0:0:0:
365,170,66519,2,0,B|323:187|276:162|264:119,1,114,2|8,0:0|0:0,0:0:0:0:
250,18,67186,6,0,B|210:25|178:51|162:85,1,114,2|8,0:0|0:0,0:0:0:0:
179,197,67853,2,0,L|179:280,2,57,2|0|8,0:0|0:0|0:0,0:0:0:0:
85,131,68519,2,0,B|55:99|55:51|81:19,1,114,2|8,0:0|0:0,0:0:0:0:
174,69,69186,2,0,L|288:75,1,114,2|8,0:0|0:0,0:0:0:0:
339,50,69686,2,0,L|402:49,1,57,8|6,3:0|0:0,0:0:0:0:
465,139,70186,6,0,B|485:184|480:234|457:273,1,114,8|2,0:0|0:0,0:0:0:0:
365,300,70853,1,8,0:0:0:0:
313,198,71186,1,2,0:0:0:0:
201,175,71519,2,0,B|155:164|110:176|76:202,1,114,8|2,0:0|0:0,0:0:0:0:
52,299,72186,1,8,0:0:0:0:
166,303,72519,6,0,B|208:289|252:294|288:312,1,114,6|8,0:0|0:0,0:0:0:0:
390,311,73186,2,0,B|375:255|384:199,1,114,2|8,0:0|0:0,0:0:0:0:
481,138,73853,2,0,L|478:263,1,114,6|8,0:0|0:0,0:0:0:0:
390,311,74519,2,0,B|326:298|263:314,1,114,2|8,0:0|0:0,0:0:0:0:
197,228,75186,6,0,L|183:88,1,114,6|8,0:0|0:0,0:0:0:0:
97,187,75853,2,0,L|77:306,1,114,2|8,0:0|0:0,0:0:0:0:
186,334,76519,2,0,B|250:341|307:294|315:227|287:178,1,228,2|2,0:0|0:0,0:0:0:0:
219,87,77519,2,0,L|297:83,1,57,8|0,0:0|0:0,0:0:0:0:
327,57,77853,6,0,B|373:42|420:60|446:95,1,114,2|8,0:0|0:0,0:0:0:0:
358,166,78519,2,0,B|333:193|330:234|349:265|378:280,1,114,2|8,0:0|0:0,0:0:0:0:
249,251,79186,2,0,B|194:315|101:322|37:274,1,228,2|2,0:0|0:0,0:0:0:0:
15,227,80019,1,2,0:0:0:0:
2,171,80186,2,0,L|5:114,1,57,8|2,0:0|0:0,0:0:0:0:
50,79,80519,1,6,0:0:0:0:
148,136,80853,6,0,B|192:145|236:138|273:120,1,114,8|2,0:0|0:0,0:0:0:0:
368,160,81519,2,0,B|385:118|371:73|340:47,1,114,8|2,0:0|0:0,0:0:0:0:
260,126,82186,1,8,0:0:0:0:
183,210,82519,2,0,L|159:327,1,114,2|8,0:0|0:0,0:0:0:0:
269,287,83186,2,0,B|320:249|391:257|436:305|443:361,1,228,6|2,0:0|0:0,0:0:0:0:
335,377,84186,2,0,L|273:377,1,57,8|0,0:0|0:0,0:0:0:0:
222,362,84519,6,0,B|180:336|131:334|89:351,1,114,8|8,0:0|0:0,0:0:0:0:
63,313,85019,2,0,B|42:271|42:225|57:186,1,114,2|2,0:0|0:0,0:0:0:0:
64,146,85519,1,8,0:0:0:0:
154,76,85853,6,0,B|195:66|235:70|270:85,1,114,6|8,0:0|0:0,0:0:0:0:
300,129,86353,2,0,B|342:137|382:124|411:98,1,114,6|0,0:0|0:0,0:0:0:0:
256,192,86853,12,0,88686,0:0:0:0:
